Movies - Other

When in Rome 2010 r5 DvdRip 720HQ [Extratorrents] Norars avi

  • Download 5x Faster
  • Download torrent
  • Direct Download
  • Rate this torrent +  |  -

Torrent info

Name:When in Rome 2010 r5 DvdRip 720HQ [Extratorrents] Norars avi

Total Size: 708.10 MB

Magnet: Magnet Link

Seeds: 4

Leechers: 4

Stream: Watch Full Movie @ Movie4u

Last Updated: 2010-07-27 08:56:40 (Update Now)

Torrent added: 2010-03-09 05:07:43



CyberGhost VPN For Torrents

Torrent Files List


When in Rome 2010 r5 DvdRip 720HQ [Extratorrents] Norars-avi.avi (Size: 708.10 MB) (Files: 1)

 When in Rome 2010 r5 DvdRip 720HQ [Extratorrents] Norars-avi.avi

708.10 MB
 

Announce URL: http://tracker.thepiratebay.org/announce

Torrent description

Format : AVI
Format/Info : Audio Video Interleave
Format profile : OpenDML
File size : 704 MiB
Duration : 1h 33mn
Overall bit rate : 1 341 Kbps
Writing application : VirtualDubMod 1.5.10.2 (build 2542/release)

Video
Format : xvid
Codec ID : xvid
Duration : 1h 33mn
Bit rate : 1 209 Kbps
Width : 720 pixels
Height : 320 pixels
Display aspect ratio : 2.25:1
Frame rate : 25.000 fps
Resolution : 24 bits
Bits/(Pixel*Frame) : 0.210
Stream size : 637.2 MiB (90%)

Audio
ID : 1
Format : MPEG Audio
Format version : Version 1
Format profile : Layer 3
Codec ID : 55
Codec ID/Hint : MP3
Duration : 1h 33mn
Bit rate mode : Constant
Bit rate : 128 Kbps
Channel(s) : 2 channels
Sampling rate : 48.0 KHz
Resolution : 16 bits
Stream size : 70.8 MiB (10%)
Alignment : Aligned on interleaves
Interleave, duration : 639 ms (15.98 video frames)
Interleave, preload duration : 216 ms
Writing library : LAME3.96.1


related torrents

Torrent name

health leech seeds Size
 


comments (0)

Main Menu

 

Sitemap